Разное от LexxEagle за , смотрели 1893

Как качать пресс в домашних условиях [2008 г., спорт дома]


Как качать пресс в домашних условиях [2008 г., спорт дома]

Как правильно качать пресс дома? В настоящем видео уроке показаны самые эффективные 6 упражнений для качания мышц живота. Через два месяца тренировок вы увидите реальные результаты в виде красивого и рельефного пресса. Способ кача проверен неоднократно- работает 100 процентов. Попробуйте сами и вы не пожалеете.

Год выпуска: 2008
Вид спорта: спорт дома
Продолжительность: 2.11

Video
Format : H.263
Duration : 2mn 11s
Bit rate : 328 Kbps
Width : 320 pixels
Height : 240 pixels
Display aspect ratio : 4/3
Frame rate : 25.000 fps
Bits/(Pixel*Frame) : 0.171
Stream size : 5.17 MiB (89)
Audio
Format : MPEG Audio
Format version : Version 2
Format profile : Layer 3
Duration : 2mn 11s
Bit rate mode : Variable
Bit rate : 34.0 Kbps
Channel(s) : 2 channels
Sampling rate : 22.05 KHz
Resolution : 16 bits
Stream size : 600 KiB (10)

Точный размер файла: 5.55 Mb

Скачиваете файл с сайта, скачать как качать пресс




Download

Как скачать бесплатно, без регистрации и смс: Как качать пресс в домашних условиях [2008 г., спорт дома] ?


В Закладки ·