Бесплатно скачать программы, обои, музыки, игры, клипы
Разное от за , смотрели 549

Видео урок по ImageCMS: Создание качественного Интернет-магазина, готового продавать.


Видео урок по ImageCMS: Создание качественного Интернет-магазина, готового продавать. Видео урок по ImageCMS: Создание качественного Интернет-магазина, готового продавать.

Каким должен быть Ваш Интернет-магазин для максимизации продаж?
Как происходит установка ImageCMS Shop на локальный компьютер?
Как выглядит административная часть Интернет-магазина?
Как пользоваться административной частью ImageCMS Shop?
Как происходит настройка внешнего вида Интернет-магазина?
Как загрузить Ваш Инетернет-магазин на удаленный сервер?
Как происходит активация лицензии ImageCMS Shop?

Видео:
Формат : TechSmith
Идентификатор кодека : tscc
Идентификатор кодека/Информация : TechSmith Screen Capture
Продолжительность : 6 м. 52 с.
Битрейт : 474 Кбит/сек
Ширина : 600 пикс.
Высота : 480 пикс.
Соотношение сторон : 5:4
Частота кадров : 15,000 кадр/сек
Бит/(Пиксели*Кадры) : 0.110
Размер потока : 23,3 Мбайт (59%)

Аудио:
Формат : MPEG Audio
Версия формата : Version 1
Профиль формата : Layer 3
Идентификатор кодека : 55
Идентификатор кодека/Подсказка : MP3
Продолжительность : 6 м. 52 с.
Вид битрейта : Постоянный
Битрейт : 320 Кбит/сек
Канал(ы) : 2 канала(ов)
Частота : 44,1 КГц
Метод сжатия : С потерями
Размер потока : 15,7 Мбайт (40%)
Выравнивание : Разделение по промежуткам
Продолжительность промежутка : 997 мс. (14,96 видеокадров)
Время предзагрузки промежутка : 750 ms

Длительность: 6.53 мин.
Размер файла: 39.3 Мб.


Download

Как скачать бесплатно, без регистрации и смс: Видео урок по ImageCMS: Создание качественного Интернет-магазина, готового продавать. ?

В Закладки ·